bronzone
» » The Alex Blake Quintet Featuring Pharoah Sanders - Now Is The Time (Live At The Knitting Factory)

The Alex Blake Quintet Featuring Pharoah Sanders - Now Is The Time (Live At The Knitting Factory)

The Alex Blake Quintet Featuring Pharoah Sanders - Now Is The Time (Live At The Knitting Factory)
  • Performer The Alex Blake Quintet Featuring Pharoah Sanders
  • Title Now Is The Time (Live At The Knitting Factory)
  • Date of release 2000
  • Country US
  • Label Bubble Core Records
  • Catalog number bc-030
  • Other formats CD, Album
  • Genre Jazz
  • Size MP3 2906 mb
  • Size FLAC 1286 mb
  • Rating: 4.1
  • Votes: 821

Tracklist

1On The Spot11:48
2Now Is The Time9:52
3Little Help Solo
Electric Bass – Alex Blake Written-By – Lennon-McCartney
6:03
4Intro - Alex Blake1:27
5Mystery Of Love
Written-By – Guy Warren
9:18
6Intro - Neil Clark2:53
7The Chief12:36

Versions

CategoryArtistTitle (Format)LabelCategoryCountryYear
bc-030The Alex Blake Quintet Featuring Pharoah Sanders The Alex Blake Quintet Featuring Pharoah Sanders - Now Is The Time (Live At The Knitting Factory) ‎(LP)Bubble Core Recordsbc-030US2000

Credits

  • Acoustic Bass, Percussion, VocalsAlex Blake
  • Alto Saxophone [Additional]Chris Hunter
  • Art Direction, Design [Cover/Booklet]Rudi Reitberg
  • DrumsVictor Jones
  • EngineerSascha Van Oertzen
  • Engineer [Mastering]Alan Douches
  • Engineer, Engineer [Pre-Mastering]Peter Katis
  • Executive-ProducerAdam Pierce
  • Liner NotesRandy Weston
  • Management [Alex Blake Is Managed By]Joanne Klein
  • PercussionNeil Clark
  • Photography By [Cover/Booklet]Eric Decker
  • Photography By [Tray]Geep Parker
  • PianoJohn Hicks
  • Tenor SaxophonePharoah Sanders
  • Written-ByAlex Blake (tracks: 1 to 6)

Notes

Recorded live at the Knitting Factory, NYC; December 6, 1999

Pre-mastering engineer: Peter Katis
Studio: Tarquin Studios, Bridgeport, CT
Mastering engineer: Alan Douches; West West Side Music

All tracks are by Alex Blake and published by Kelabax Publishing © ℗ 2000 except track 4 based on With A Little Help From My Friends (Lennon/McCartney), ℗ 1967 Sony ATV Songs, LLC, and track 7 by Guy Warren.

Barcodes

  • Barcode (Text): 6 00116 00302 7
  • Barcode (Scanned UPC): 600116003027
  • Barcode (Scanned UPC as 13-digit GTIN): 0600116003027
  • Mastering SID Code: IFPI L891
  • Mould SID Code (The space is missing): IFPIA603
  • Matrix / Runout: C1.1 163269-01 2460-BC030P
  • Other (Molded into hub): RAINBO CA

Companies

  • Published By – Kelabax Publishing
  • Copyright (c) – Kelabax Publishing
  • Phonographic Copyright (p) – Kelabax Publishing
  • Copyright (c) – Sony/ATV Songs LLC
  • Recorded At – The Knitting Factory
  • Engineered At – Tarquin Studios
  • Mastered At – West West Side Music

Video

Album

Album 2000 7 Songs. More By Pharoah Sanders. Sketches of MD - Live At the Iridium. The Chief - The Alex Blake Quintet Live. Лента с персональными рекомендациями и музыкальными новинками, радио, подборки на любой вкус, удобное управление своей. Now is the Time is a series of impeccably performed tracks culled from Alex Blake's live sessions at New York's Knitting Factory. Though nothing intensely brilliant evolves out of Now, the musicianship is paramount and unmatched on any late-'90s jazz recordings. Blake, who started as a bass player in Sun Ra's Arkestra at a very young age, sits himself comfortably in the background as it seems piano and drums take most of the attention on the record. John Hicks' piano playing immediately recalls McCoy Tyner's, while Victor Jones and Neil Clark tap out rather comple. The Alex Blake Quintet Live - Now is the Time, Little Help Solo, Intro The Chief, Mystery of Love, Intro Now is the Time, The Alex Blake Quintet - Intro - Neil Clark, The Alex Blake Quintet Featuring Pharoah Sanders 2000 Now Is The Time Live At The Knitting Factory - 05 Intro - Alex Blake и другие скачать в mp3 и слушать музыку онлайн бесплатно. The Alex Blake Quintet Live: On the Spot, Intro The Chief, The Chief и другие песни. I was not disappointed. Alex Blake has a revolutionary playing style and technique second to none. His innovative combination of strumming, rapid lyrical notations and percussive slaps on the Acoustic Bass are on a level par excellence and distinctly Alex Blake. Mr Blake has chosen an incredible supporting cast for his date at the Knitting Factory and I recommended this CD highly for all those interested in listening to a ArtistMusician whose talent transcends the boundaries of his chosen instrument. Read more. 8 people found this helpful. FILE 04 - Little Help WAVE INDEX 01 00:00:00 FILE 05 - Intro - Alex WAVE TRACK 05 AUDIO TITLE Intro - Alex Blake PERFORMER The Alex Blake Quintet INDEX 01 00:00:00 FILE 06 - Now is the WAVE TRACK 06 AUDIO TITLE Now is the Time PERFORMER The Alex Blake Quintet INDEX 01 00:00:00 FILE. 07 - Mystery of WAVE TRACK 07 AUDIO TITLE Mystery of Love PERFORMER The Alex Blake Quintet INDEX 01 00:00:00. Acoustic Bass, Electric Bass, Percussion, Vocals Alex Blake Drums Victor Jones Percussion Neil Clark Piano John Hicks Saxophone Pharoah Sanders. Изучите релизы лейбла The Knitting Factory. Выясните, что отсутствует в вашей дискографии, и приобретите релизы лейбла The Knitting browser does not support the audio element. Now Is the Time. Your browser does not support the audio element. Mystery of Love