bronzone
» » Frank Weber - Before You

Frank Weber - Before You

Frank Weber - Before You
  • Performer Frank Weber
  • Title Before You
  • Date of release 28 Apr 2010
  • Country Japan
  • Style Soft Rock, Smooth Jazz
  • Label Vivid Sound
  • Catalog number VSCD-3379
  • Other formats CD, Album
  • Genre Jazz / Rock
  • Size MP3 1830 mb
  • Size FLAC 1260 mb
  • Rating: 4.5
  • Votes: 745

Tracklist

1Anything But No6:15
2Celestial Dancer (Song For John)5:25
3Something Like Love6:39
4Between Hellos5:52
5Already There4:02
6Holly3:58
7How's And Why's6:33
8The 100% Perfect Girl4:07
9Everything We Used To Be5:34
10Before You3:55
11Long, Long Time4:35

Credits

  • Supervised By, Liner Notes金澤寿和

Barcodes

  • Barcode (Scanned): 4540399033792
  • Barcode (Text): 4 540399-037792

Companies

  • Manufactured By – Vivid Sound Corporation
  • Phonographic Copyright (p) – Frank Weber

Album

Listen free to Frank Weber Before You Already There, Anything But No and more. 11 tracks 56:55. Frank Weber - Frank Weber 1980. To favorites 0 Download album. Listen album. AOR Soft Rock. Frank Weber. Songs in album Frank Weber - Frank Weber 1980. Frank Weber - Take It To The Limit. Frank Weber - The Old Man. Frank Weber - You Can Come Home To Me. Frank Weber - Between N. Y And L. Frank Weber - Who Wrote The Answers. Frank Weber - Reflections Of Myself. Frank Weber - Just Like Everyone Else. Frank Weber - On. Official music video for the title track of the album Before You Were Born from FRANK SMITH. by David Bellarosa and Aaron Sinclair a LONELY GIANT You. Disc IDs 0. Cover Art 1. Before You. lyricist and composer: Frank Weber soft rocksmooth jazz pianist and singer. publisher: Anima Mundi Music US work publisher. Packaging: CardboardPaper Sleeve. Status: Official. Language: English. 71 - Frank Weber. Лента с персональными рекомендациями и музыкальными новинками, радио, подборки на любой вкус, удобное управление своей коллекцией. Listen to Frank Weber Radio featuring songs from Before You free online. Слушать бесплатное интернет-радио, спорт, музыку, новости, разговорное и подкасты. События в прямом эфире, трансляции игр NFL, MLB, NBA, NHL, университетских команд и матчи Премьер-лиги. CNN, MSNBC, Fox News, ESPN, BBC, NPR. Станции, на которых звучит Frank Weber. Frank Weber: German former cyclist. He competed in the sprint event at the 1988 Summer Olympics. Teach Me, Take It To The Limit, Trip и другие песни. Before You Accuse Me also known as Before You Accuse Me Take a Look at Yourself is a song written and recorded by American musician Bo Diddley in 1957. It was released as the B-side to Diddley's Say Bossman and was included on his self-titled debut album in 1958. Backing Diddley on vocal and guitar are Jody Williams on guitar, Willie Dixon on bass, and Frank Kirkland on drums. Your Rating. Overview . Frank Weber download free and listen online. Andy Irvine, Eberhard Weber, Dirko Juchem, Frank Fiedler, Chris Jones Looking for you. download 0:45. Frank Berger, Hans-Dieter Weber Concerto Op. 9 No. 2: Adagio. download 3:45

Discussions of the Frank Weber - Before You Album


virus
foobar2000 1.3.17 / Dynamic Range Meter 1.1.1
log date: 2019-01-23 18:26:35

--------------------------------------------------------------------------------
Analyzed: Frank Weber / Before You
--------------------------------------------------------------------------------

DR Peak RMS Duration Track
--------------------------------------------------------------------------------
DR10 -0.10 dB -12.05 dB 4:02 01-Already There
DR9 -0.06 dB -11.01 dB 6:15 02-Anything But No
DR10 -0.09 dB -12.94 dB 6:33 03-How's And Why's
DR10 -0.10 dB -13.11 dB 3:58 04-Holly
DR12 -0.10 dB -16.32 dB 4:07 05-The 100% Perfect Girl
DR11 -0.10 dB -13.76 dB 6:39 06-Something Like Love
DR10 -0.80 dB -14.19 dB 5:34 07-Everything We Used To Be
DR10 -0.10 dB -11.95 dB 4:35 08-Long, Long Time
DR11 -0.10 dB -14.05 dB 5:52 09-Between Hellos
DR12 -0.10 dB -15.01 dB 5:25 10-Celestial Dancer (Song For John)
DR9 -1.21 dB -14.65 dB 3:55 11-Before You
--------------------------------------------------------------------------------

Number of tracks: 11
Official DR value: DR10

Samplerate: 44100 Hz
Channels: 2
Bits per sample: 16
Bitrate: 618 kbps
Codec: ALAC
================================================================================